Настройки изображения Samsung UE43NU7400

Ответить

Крис
Новичок
Сообщения: 1
Зарегистрирован: 16 янв 2019, 03:21
Контактная информация:

Re: Настройки изображения Samsung UE43NU7400

Сообщение Крис » 16 янв 2019, 03:24

Эти настройки для какой матрицы IPS или VA ???

vavan22
Осваиваюсь
Осваиваюсь
Сообщения: 13
Зарегистрирован: 17 дек 2018, 20:32
Контактная информация:

Re: Настройки изображения Samsung UE43NU7400

Сообщение vavan22 » 10 фев 2019, 18:16

Добрый вечер. Купил телевизор Samsung UE43NU7402. 1. В настройках не нашел разрешение экрана. Должно быть 4k но я бы хотел проверить. Телевизор был настроен регион (через геоблокацию) в магазине. Я бы хотел проверить действительно ли выставлено 4k.
2. Телевизор не видит некоторые фильмы вот например в чем причина
General
Unique ID : 178307646705713898257333512738953337706 (0x8624CDB968D944FFB65AE74F77059B6A)
Complete name : E:\222\Dances.With.Wolves.DC.1990.1080p.BluRay.x264-BestHD.rus (1).mkv
Format : Matroska
Format version : Version 2
File size : 15.7 GiB
Duration : 3 h 56 min
Overall bit rate : 9 523 kb/s
Encoded date : UTC 2011-08-31 20:41:12
Writing application : mkvmerge v4.9.1 ('Ich will') зібрано Jul 11 2011 23:53:15
Writing library : libebml v1.2.1 + libmatroska v1.1.1

Video
ID : 1
Format : AVC
Format/Info : Advanced Video Codec
Format profile : High@L4.1
Format settings : CABAC / 5 Ref Frames
Format settings, CABAC : Yes
Format settings, ReFrames : 5 frames
Muxing mode : Header stripping
Codec ID : V_MPEG4/ISO/AVC
Duration : 3 h 56 min
Bit rate : 9 074 kb/s
Width : 1 920 pixels
Height : 816 pixels
Display aspect ratio : 2.35:1
Frame rate mode : Constant
Frame rate : 23.976 FPS
Color space : YUV
Chroma subsampling : 4:2:0
Bit depth : 8 bits
Scan type : Progressive
Bits/(Pixel*Frame) : 0.242
Stream size : 14.7 GiB (93%)
Writing library : x264 core 65 r999M cc51047
Encoding settings : cabac=1 / ref=5 / deblock=1:0:0 / analyse=0x3:0x113 / me=umh / subme=8 / psy_rd=0.7:0.7 / mixed_ref=1 / me_range=16 / chroma_me=1 / trellis=1 / 8x8dct=1 / cqm=0 / deadzone=21,11 / chroma_qp_offset=-4 / threads=6 / nr=0 / decimate=1 / mbaff=0 / bframes=3 / b_pyramid=1 / b_adapt=1 / b_bias=0 / direct=3 / wpredb=1 / keyint=250 / keyint_min=25 / scenecut=40(pre) / rc=2pass / bitrate=9074 / ratetol=1.0 / qcomp=0.60 / qpmin=10 / qpmax=51 / qpstep=4 / cplxblur=20.0 / qblur=0.5 / ip_ratio=1.40 / pb_ratio=1.30 / aq=1:0.70
Language : English
Default : Yes
Forced : No

Audio
ID : 4
Format : AC-3
Format/Info : Audio Coding 3
Muxing mode : Header stripping
Codec ID : A_AC3
Duration : 3 h 56 min
Bit rate mode : Constant
Bit rate : 448 kb/s
Channel(s) : 6 channels
Channel positions : Front: L C R, Side: L R, LFE
Sampling rate : 48.0 kHz
Frame rate : 31.250 FPS (1536 SPF)
Bit depth : 16 bits
Compression mode : Lossy
Stream size : 758 MiB (5%)
Language : Ukrainian
Service kind : Complete Main
Default : Yes
Forced : No

Ответить

Вернуться в «Настройка телевизоров Samsung»