2019: Sony XG9505, X950G

Все о телевизорах Sony
Ответить
Yuran
Опытный
Опытный
Сообщения: 272
Зарегистрирован: 18 дек 2018, 18:11
Контактная информация:

Re: 2019: Sony XG9505, X950G

Сообщение Yuran »

65inch писал(а): 14 янв 2020, 15:08 Sony будет последним из производителей, которые позволят пиратский просмотр на своих устройствах.
Релизы фильмов, которые собирает Селезень для Кинозала и Рутора, сделаны только для ТВ LG. Для Sony не встречал.
В любом случае нужен внешний плеер с поддержкой DV.
Пока Sony позволяет ставить сторонние приложения,смотреть можно любой контент.
Sony 55xf9005---MiBoxS
Нет в мире совершенства!
65inch
Активист
Активист
Сообщения: 31
Зарегистрирован: 16 ноя 2019, 15:13
Контактная информация:

Re: 2019: Sony XG9505, X950G

Сообщение 65inch »

Ну так хочется смотреть полноценный DV. Фильмы же издаются на UHDBD c качественным DV профиля 7 с двумя видеопотоками. И выкладываются они на трекерах в виде папочной структуры BDMV. Такие же релизы не идут на приложениях.
Sony 65XG9505, Philips 46PFL9707, Dune 4K Solo, Dune 4K Pro
65inch
Активист
Активист
Сообщения: 31
Зарегистрирован: 16 ноя 2019, 15:13
Контактная информация:

Re: 2019: Sony XG9505, X950G

Сообщение 65inch »

LiveJPN писал(а): 15 янв 2020, 03:46 Каждый день смотрю торенты через HdVideobox на сони от селезня :lol:
Эти смотрели? В DV?
https://kinozal.guru/details.php?id=1746578
https://kinozal.guru/details.php?id=1746637
Sony 65XG9505, Philips 46PFL9707, Dune 4K Solo, Dune 4K Pro
LiveJPN
Активист
Активист
Сообщения: 37
Зарегистрирован: 06 дек 2019, 10:24
Контактная информация:

Re: 2019: Sony XG9505, X950G

Сообщение LiveJPN »

65inch писал(а): 15 янв 2020, 08:30
LiveJPN писал(а): 15 янв 2020, 03:46 Каждый день смотрю торенты через HdVideobox на сони от селезня :lol:
Эти смотрели? В DV?
https://kinozal.guru/details.php?id=1746578
https://kinozal.guru/details.php?id=1746637
Это фильм не смотрел, так как лажа полная, но так же выбираете в приложение торрент любой, хоть с рутора,хоть с кинозала и смотрите его, в чем проблема?
65inch
Активист
Активист
Сообщения: 31
Зарегистрирован: 16 ноя 2019, 15:13
Контактная информация:

Re: 2019: Sony XG9505, X950G

Сообщение 65inch »

LiveJPN писал(а): 15 янв 2020, 09:03
65inch писал(а): 15 янв 2020, 08:30
LiveJPN писал(а): 15 янв 2020, 03:46 Каждый день смотрю торенты через HdVideobox на сони от селезня :lol:
Эти смотрели? В DV?
https://kinozal.guru/details.php?id=1746578
https://kinozal.guru/details.php?id=1746637
Это фильм не смотрел, так как лажа полная, но так же выбираете в приложение торрент любой, хоть с рутора,хоть с кинозала и смотрите его, в чем проблема?
В чём лажа-то? В том, что не идёт? Мы же техническую сторону обсуждаем, а не художественные ценности фильма.
Проблема в том, что никто на форуме ещё не писал, что смог посмотреть cкачанные фильмы в Dolby Vision, только демо-ролики.
Sony 65XG9505, Philips 46PFL9707, Dune 4K Solo, Dune 4K Pro
hazelgrouse
Опытный
Опытный
Сообщения: 300
Зарегистрирован: 05 дек 2019, 05:47
Контактная информация:

Re: 2019: Sony XG9505, X950G

Сообщение hazelgrouse »

никто не в курсе почему встроенный плеер зависает после приблизительно получаса воспроизведения фильмов больших объемов с внешнего жёсткого ssd на 1 Тб? причем виснет наглухо, а сам жёсткий он определяет как кучу знаков вопроса и грузиться он очень долго, это разочаровывает так как с этим жёстким абсолютно нет проблем на моем старом ТВ с 6 андроидом и открывается он на нём моментально sony что то намудрила?
65XG9505
ScorpionBN
Опытный
Опытный
Сообщения: 118
Зарегистрирован: 21 авг 2019, 06:04
Откуда: Уфа
Контактная информация:

Re: 2019: Sony XG9505, X950G

Сообщение ScorpionBN »

Кто может сказать почему среди кучи фильмов находится такой, который начинает показывать как слайд-шоу, при этом он не большой по размеру, 22 гига. К примеру Малафисента с такими метаданными, не открывает ни один плеер, кодеков не хватает? Можно ли кодеки устанавливать отдельно, как на компьютере? Дело не в скорости вайфай, роутер хороший.
Format : Matroska
Format version : Version 4
File size : 21.4 GiB
Duration : 1 h 58 min
Overall bit rate : 25.8 Mb/s
Encoded date : UTC 2020-01-01 09:29:45
Writing application : mkvmerge v38.0.0 ('The Silent Type') 64-bit
Writing library : libebml v1.3.9 + libmatroska v1.5.2
Cover : Yes
Attachments : cover.png

Video
ID : 1
Format : HEVC
Format/Info : High Efficiency Video Coding
Format profile : Main@L5@Main
Codec ID : V_MPEGH/ISO/HEVC
Duration : 1 h 58 min
Bit rate : 24.8 Mb/s
Width : 3 840 pixels
Height : 1 600 pixels
Display aspect ratio : 2.40:1
Frame rate mode : Constant
Frame rate : 23.976 (24000/1001) FPS
Standard : NTSC
Color space : YUV
Chroma subsampling : 4:2:0
Bit depth : 8 bits
Bits/(Pixel*Frame) : 0.168
Stream size : 20.6 GiB (96%)
Title : WEB-DL.2160p.SDR by Silverok
Default : Yes
Forced : No
Color range : Limited
Color primaries : BT.709
Transfer characteristics : BT.709
Matrix coefficients : BT.709

Audio #1
ID : 2
Format : AC-3
Format/Info : Audio Coding 3
Commercial name : Dolby Digital
Codec ID : A_AC3
Duration : 1 h 58 min
Bit rate mode : Constant
Bit rate : 384 kb/s
Channel(s) : 6 channels
Channel layout : L R C LFE Ls Rs
Sampling rate : 48.0 kHz
Frame rate : 31.250 FPS (1536 SPF)
Bit depth : 16 bits
Compression mode : Lossy
Stream size : 326 MiB (1%)
Title : Дубляж, iTunes
Language : Russian
Service kind : Complete Main
Default : Yes
Forced : No
Sony 65XG9505
Киноман
Опытный
Опытный
Сообщения: 426
Зарегистрирован: 14 окт 2014, 10:59
Откуда: Украина
Контактная информация:

Re: 2019: Sony XG9505, X950G

Сообщение Киноман »

федот писал(а): 14 янв 2020, 06:20
Киноман писал(а): 13 янв 2020, 20:21
Dante_kh писал(а): 13 янв 2020, 14:50 Шеф выбирает ТВ, сравнить напрямую возможности нет. Хотели изначально 82q70r, но из-за проблем на таможне никто не может протащить, как обычно, по нормальной цене. Есть вариант с 85xg9505 c доплатой. Кто-то более менее плотно сравнивал 70/80 модели кулед и 9505? Сам, как владелец хе9005, всячески за 9505, но хотел бы мнение общественности услышать (другой вопрос, что самсунг пока никто не может даже пообещать притащить).
85XG8596 можно как вариант еще
не требовательному шефу может зайти, так как IPS
только с крепежем сразу надо думать, я заказывал из европы Vogel slim на вес 45 кг
так как в Украине почему не было, от слова совсем

а XG9505 нужно сравнивать с Q90, хотя и Q80 пойдет
В 85" на XG8596 устанавливают VA.
значит у меня что-то со зрением
>>>> обзор Sony KDL-50W828 - лучший ТВ 2014 года в диагонале 50"
hazelgrouse
Опытный
Опытный
Сообщения: 300
Зарегистрирован: 05 дек 2019, 05:47
Контактная информация:

Re: 2019: Sony XG9505, X950G

Сообщение hazelgrouse »

сегодня ТВ сам включился пробежали буквы андроид экран покрылся полосами и всё не реагировал ни на что))) это что за прикол? никто не сталкивался?
65XG9505
федот
Профи
Профи
Сообщения: 17400
Зарегистрирован: 21 июн 2014, 10:49
Откуда: Уфа
Контактная информация:

Re: 2019: Sony XG9505, X950G

Сообщение федот »

Киноман писал(а): 16 янв 2020, 15:05
федот писал(а): 14 янв 2020, 06:20
Киноман писал(а): 13 янв 2020, 20:21
85XG8596 можно как вариант еще
не требовательному шефу может зайти, так как IPS
только с крепежем сразу надо думать, я заказывал из европы Vogel slim на вес 45 кг
так как в Украине почему не было, от слова совсем

а XG9505 нужно сравнивать с Q90, хотя и Q80 пойдет
В 85" на XG8596 устанавливают VA.
значит у меня что-то со зрением
Обзор был на 85" https://hdtvsandmore.com/sony-x850g-4k-hdr-tv-review
На avsforum структуру пикселей на XG85 в 85" и 75" выкладывали
(первая ссылка на 85", вторая на 75") https://www.avsforum.com/forum/attachme ... 1561995517
https://www.avsforum.com/forum/attachme ... 1561573200
Заинтересованы в покупке ТВ и периферии по выгодной цене?
Рекомендую обратиться к Serg VV, в наш КОММЕРЧЕСКИЙ РАЗДЕЛ форума VyborTV
ПЕРВАЯ ТЕМА по услуге доставки ТВ из Финляндии в РФ (GIGANTTI, VERKKOKAUPPA)
+7-950-222-22-85 (Viber/WhatsApp)
ТЕЛЕГРАММ КАНАЛ
@tv_from_finland
Ответить

Вернуться в «О телевизорах Sony»